Deep Purple - Rapture Of The Deep (2005) [FLAC]
Started by Professor Chaos


Rate this topic
  • 0 Vote(s) - 0 Average
  • 1
  • 2
  • 3
  • 4
  • 5


0 posts in this topic
Professor Chaos
Uploader


0
24 posts 24 threads Joined: Apr 2019
04-14-2019, 05:04 PM -
#1
[Image: odbsdxom.jpg]

Audio Bitrate: ~900 kBit/s (44.1 kHz/16 Bit/s) | Audio Encoder: FLAC
Releaseyear: 2005 | Size: 416,94 MB | Notes: Discogs

Tracklist:
Code:
1 - Money Talks - 5:32
2 - Girls Like That - 4:02
3 - Wrong Man - 4:53
4 - Rapture Of The Deep - 5:55
5 - Clearly Quite Absurd - 5:25
6 - Dont Let Go - 4:33
7 - Back To Back - 4:04
8 - Kiss Tomorrow Goodbye - 4:20
9 - Junkyard Blues - 5:33
10 - Before Time Began - 6:31

Log / CUE / NFO:
Code:
Exact Audio Copy V1.0 beta 3 from 29. August 2011

EAC extraction logfile from 25. July 2013, 0:07

Deep Purple / Rapture Of The Deep

Used drive  : ATAPI   iHAS124   B   Adapter: 2  ID: 0

Read mode               : Secure
Utilize accurate stream : Yes
Defeat audio cache      : Yes
Make use of C2 pointers : No

Read offset correction                      : 6
Overread into Lead-In and Lead-Out          : No
Fill up missing offset samples with silence : Yes
Delete leading and trailing silent blocks   : No
Null samples used in CRC calculations       : Yes
Used interface                              : Native Win32 interface for Win NT & 2000

Used output format              : User Defined Encoder
Selected bitrate                : 1024 kBit/s
Quality                         : High
Add ID3 tag                     : No
Command line compressor         : C:\Program Files (x86)\Exact Audio Copy\FLAC\FLAC.EXE
Additional command line options : -8 -V -T "ARTIST=%artist%" -T "TITLE=%title%" -T "ALBUM=%albumtitle%" -T "DATE=%year%" -T "TRACKNUMBER=%tracknr%" -T "GENRE=%genre%" -T "PERFORMER=%albuminterpret%" -T "COMPOSER=%composer%" %haslyrics%--tag-from-file=LYRICS="%lyricsfile%"%haslyrics% -T "ALBUMARTIST=%albumartist%" -T "DISCNUMBER=%cdnumber%" -T "TOTALDISCS=%totalcds%" -T "TOTALTRACKS=%numtracks%" -T "COMMENT=%comment%" %source% -o %dest%


TOC of the extracted CD

     Track |   Start  |  Length  | Start sector | End sector
    ---------------------------------------------------------
        1  |  0:00.00 |  5:32.74 |         0    |    24973  
        2  |  5:32.74 |  4:02.48 |     24974    |    43171  
        3  |  9:35.47 |  4:53.23 |     43172    |    65169  
        4  | 14:28.70 |  5:55.56 |     65170    |    91850  
        5  | 20:24.51 |  5:25.24 |     91851    |   116249  
        6  | 25:50.00 |  4:33.62 |    116250    |   136786  
        7  | 30:23.62 |  4:04.73 |    136787    |   155159  
        8  | 34:28.60 |  4:20.45 |    155160    |   174704  
        9  | 38:49.30 |  5:33.17 |    174705    |   199696  
       10  | 44:22.47 |  6:31.01 |    199697    |   229022  


Range status and errors

Selected range

     Filename G:\CD\Deep Purple - Rapture Of The Deep.wav

     Peak level 100.0 %
     Extraction speed 5.7 X
     Range quality 100.0 %
     Test CRC 57571A0D
     Copy CRC 57571A0D
     Copy OK

No errors occurred


AccurateRip summary

Track  1  accurately ripped (confidence 34)  [8CBB7EBF]  (AR v2)
Track  2  accurately ripped (confidence 34)  [23262C0D]  (AR v2)
Track  3  accurately ripped (confidence 34)  [03FA1382]  (AR v2)
Track  4  accurately ripped (confidence 34)  [4160BFB6]  (AR v2)
Track  5  accurately ripped (confidence 34)  [1C487E48]  (AR v2)
Track  6  accurately ripped (confidence 34)  [795C495D]  (AR v2)
Track  7  accurately ripped (confidence 34)  [7E64DD29]  (AR v2)
Track  8  accurately ripped (confidence 34)  [74B1433A]  (AR v2)
Track  9  accurately ripped (confidence 33)  [6349C42F]  (AR v2)
Track 10  accurately ripped (confidence 34)  [643896E3]  (AR v2)

All tracks accurately ripped

End of status report

==== Log checksum E29B8270C62428ECEA3A04615FD4EC507AA669F4E29EB14351495EE9E2E339C1 ====


REM GENRE "Hard Rock"
REM DATE 2005
REM DISCID 7A0BED0A
REM COMMENT "ExactAudioCopy v1.0b3"
PERFORMER "Deep Purple"
TITLE "Rapture Of The Deep (2005, 0165542ERE)"
FILE "Deep Purple - Rapture Of The Deep.flac" WAVE
  TRACK 01 AUDIO
    TITLE "Money Talks"
    PERFORMER "Deep Purple"
    INDEX 01 00:00:00
  TRACK 02 AUDIO
    TITLE "Girls Like That"
    PERFORMER "Deep Purple"
    INDEX 01 05:32:74
  TRACK 03 AUDIO
    TITLE "Wrong Man"
    PERFORMER "Deep Purple"
    INDEX 00 09:34:40
    INDEX 01 09:35:47
  TRACK 04 AUDIO
    TITLE "Rapture Of The Deep"
    PERFORMER "Deep Purple"
    INDEX 00 14:26:63
    INDEX 01 14:28:70
  TRACK 05 AUDIO
    TITLE "Clearly Quite Absurd"
    PERFORMER "Deep Purple"
    INDEX 01 20:24:51
  TRACK 06 AUDIO
    TITLE "Don't Let Go"
    PERFORMER "Deep Purple"
    INDEX 00 25:48:07
    INDEX 01 25:50:00
  TRACK 07 AUDIO
    TITLE "Back To Back"
    PERFORMER "Deep Purple"
    INDEX 00 30:22:44
    INDEX 01 30:23:62
  TRACK 08 AUDIO
    TITLE "Kiss Tomorrow Goodbye"
    PERFORMER "Deep Purple"
    INDEX 00 34:27:58
    INDEX 01 34:28:60
  TRACK 09 AUDIO
    TITLE "Junkyard Blues"
    PERFORMER "Deep Purple"
    INDEX 00 38:46:73
    INDEX 01 38:49:30
  TRACK 10 AUDIO
    TITLE "Before Time Began"
    PERFORMER "Deep Purple"
    INDEX 00 44:21:11
    INDEX 01 44:22:47


DOWNLOAD:
All Hosters/Crypters are compatible

Crypted via FileCrypt:
Rapidgator.net [Image: D5B1894D23.png]
AyeFiles.com [Image: E98FF57AAE.png]
Share-online.biz [Image: B35D7D95EC.png]

Crypted via Relink:
Rapidgator.net [Image: 0751a45cd8105152c370d590e23af3.png]
AyeFiles.com [Image: daa14da81f86d80dc355f85e5981ab.png]
Share-online.biz [Image: b3e8215607311c518c12a721695748.png]

Password: "slam" (without " ")




Users browsing this thread: 1 Guest(s)