WarezForum

Full Version: Depeche Mode - People Are People (Reissue) (1984/1987) [FLAC]
You're currently viewing a stripped down version of our content. View the full version with proper formatting.
[Image: eob8r94q.jpg]

Audio Bitrate: ~800 kBit/s (44.1 kHz/16 Bit/s) | Audio Encoder: FLAC
Releaseyear: 1984/1987 | Size: 245,6 MB | Notes: Discogs | Add. Notes: Reissue

Tracklist:
Code:
1 - People Are People - 3:45
2 - Now This Is Fun - 3:23
3 - Love In Itself - 4:21
4 - Work Hard - 4:22
5 - Told You So - 4:27
6 - Get The Balance Right - 3:13
7 - Leave In Silence - 4:00
8 - Pipeline - 6:10
9 - Everything Counts - 7:20

Log / CUE / NFO:
Code:
Exact Audio Copy V0.99 prebeta 4 from 23. January 2008

EAC extraction logfile from 16. March 2008, 1:36

Depeche Mode / People Are People

Used drive  : ASUS    DRW-1608P2S   Adapter: 1  ID: 0

Read mode               : Secure
Utilize accurate stream : Yes
Defeat audio cache      : Yes
Make use of C2 pointers : No

Read offset correction                      : 48
Overread into Lead-In and Lead-Out          : No
Fill up missing offset samples with silence : Yes
Delete leading and trailing silent blocks   : No
Null samples used in CRC calculations       : Yes
Used interface                              : Native Win32 interface for Win NT & 2000
Gap handling                                : Appended to previous track

Used output format              : User Defined Encoder
Selected bitrate                : 768 kBit/s
Quality                         : High
Add ID3 tag                     : No
Command line compressor         : C:\Program Files (x86)\Exact Audio Copy\FLAC\FLAC.EXE
Additional command line options : -8 -V -T "ARTIST=%a" -T "TITLE=%t" -T "ALBUM=%g" -T "DATE=%y" -T "TRACKNUMBER=%n" -T "GENRE=%m" -T "COMMENT=EAC FLAC -8" %s


TOC of the extracted CD

     Track |   Start  |  Length  | Start sector | End sector
    ---------------------------------------------------------
        1  |  0:00.33 |  3:47.50 |        33    |    17107  
        2  |  3:48.08 |  3:26.20 |     17108    |    32577  
        3  |  7:14.28 |  4:26.02 |     32578    |    52529  
        4  | 11:40.30 |  4:25.03 |     52530    |    72407  
        5  | 16:05.33 |  4:26.62 |     72408    |    92419  
        6  | 20:32.20 |  3:16.28 |     92420    |   107147  
        7  | 23:48.48 |  4:03.12 |    107148    |   125384  
        8  | 27:51.60 |  6:13.00 |    125385    |   153359  
        9  | 34:04.60 |  7:19.05 |    153360    |   186289  


Track  1

     Filename H:\Temp\01. Depeche Mode - People Are People.wav

     Pre-gap length  0:00:02.33

     Peak level 84.9 %
     Track quality 100.0 %
     Test CRC 5D19D0ED
     Copy CRC 5D19D0ED
     Accurately ripped (confidence 29)  [5053E504]
     Copy OK

Track  2

     Filename H:\Temp\02. Depeche Mode - Now This Is Fun.wav

     Pre-gap length  0:00:03.33

     Peak level 90.6 %
     Track quality 100.0 %
     Test CRC 8749FA70
     Copy CRC 8749FA70
     Accurately ripped (confidence 27)  [6564A141]
     Copy OK

Track  3

     Filename H:\Temp\03. Depeche Mode - Love In Itself.wav

     Pre-gap length  0:00:04.10

     Peak level 75.5 %
     Track quality 100.0 %
     Test CRC C942DB93
     Copy CRC C942DB93
     Accurately ripped (confidence 29)  [6D2FDA2B]
     Copy OK

Track  4

     Filename H:\Temp\04. Depeche Mode - Work Hard.wav

     Pre-gap length  0:00:04.67

     Peak level 76.9 %
     Track quality 100.0 %
     Test CRC 1C9EBC26
     Copy CRC 1C9EBC26
     Accurately ripped (confidence 27)  [A6DB3AFE]
     Copy OK

Track  5

     Filename H:\Temp\05. Depeche Mode - Told You So.wav

     Pre-gap length  0:00:03.35

     Peak level 71.8 %
     Track quality 100.0 %
     Test CRC 861CE2E7
     Copy CRC 861CE2E7
     Accurately ripped (confidence 29)  [853D9F63]
     Copy OK

Track  6

     Filename H:\Temp\06. Depeche Mode - Get The Balance Right.wav

     Pre-gap length  0:00:01.32

     Peak level 84.9 %
     Track quality 100.0 %
     Test CRC 6EFEDF0A
     Copy CRC 6EFEDF0A
     Accurately ripped (confidence 28)  [07E3CDEE]
     Copy OK

Track  7

     Filename H:\Temp\07. Depeche Mode - Leave In Silence.wav

     Pre-gap length  0:00:03.50

     Peak level 100.0 %
     Track quality 100.0 %
     Test CRC 912B3960
     Copy CRC 912B3960
     Accurately ripped (confidence 27)  [D6747724]
     Copy OK

Track  8

     Filename H:\Temp\08. Depeche Mode - Pipeline.wav

     Pre-gap length  0:00:03.02

     Peak level 78.5 %
     Track quality 100.0 %
     Test CRC 9C422881
     Copy CRC 9C422881
     Accurately ripped (confidence 27)  [5A263B5F]
     Copy OK

Track  9

     Filename H:\Temp\09. Depeche Mode - Everything Counts.wav

     Pre-gap length  0:00:04.17

     Peak level 69.9 %
     Track quality 100.0 %
     Test CRC 0476D905
     Copy CRC 0476D905
     Accurately ripped (confidence 27)  [F66FABF6]
     Copy OK


All tracks accurately ripped

No errors occurred

End of status report

REM COMMENT "CUETools generated dummy CUE sheet"
FILE "01 - People Are People.flac" WAVE
  TRACK 01 AUDIO
    INDEX 01 00:00:00
FILE "02 - Now This Is Fun.flac" WAVE
  TRACK 02 AUDIO
    INDEX 01 00:00:00
FILE "03 - Love, in Itself.flac" WAVE
  TRACK 03 AUDIO
    INDEX 01 00:00:00
FILE "04 - Work Hard.flac" WAVE
  TRACK 04 AUDIO
    INDEX 01 00:00:00
FILE "05 - Told You So.flac" WAVE
  TRACK 05 AUDIO
    INDEX 01 00:00:00
FILE "06 - Get the Balance Right.flac" WAVE
  TRACK 06 AUDIO
    INDEX 01 00:00:00
FILE "07 - Leave in Silence.flac" WAVE
  TRACK 07 AUDIO
    INDEX 01 00:00:00
FILE "08 - Pipeline.flac" WAVE
  TRACK 08 AUDIO
    INDEX 01 00:00:00
FILE "09 - Everything Counts.flac" WAVE
  TRACK 09 AUDIO
    INDEX 01 00:00:00


DOWNLOAD:
All Hosters/Crypters are compatible

Crypted via FileCrypt:
AyeFiles.com [Image: 4F96E87267.png]
Rapidgator.net [Image: D5CE625E35.png]
Share-online.biz [Image: 5E205893EA.png]

Crypted via Relink:
AyeFiles.com [Image: f338bad92e5dd8a71c4cc7f19c4c4b.png]
Rapidgator.net [Image: 4eb6bbe4c300c44abb676c9dee6d98.png]
Share-online.biz [Image: 4fdf3f75fde9c5ce6b01c0b2b0ef3e.png]

Password: "slam" (without " ")