WarezForum

Full Version: Depeche Mode - Some Great Reward (Reissue) (1984/1995) [FLAC]
You're currently viewing a stripped down version of our content. View the full version with proper formatting.
[Image: jrwvgpma.jpg]

Audio Bitrate: ~800 kBit/s (44.1 kHz/16 Bit/s) | Audio Encoder: FLAC
Releaseyear: 1984/1995 | Size: 244 MB | Notes: Discogs | Add. Notes: Reissue

Tracklist:
Code:
1 - Something To Do - 3:48
2 - Lie To Me - 5:04
3 - People Are People - 3:52
4 - It Doesn't Matter - 4:45
5 - Stories Of Old - 3:14
6 - Somebody - 4:28
7 - Master And Servant - 4:13
8 - If You Want - 4:41
9 - Blasphemous Rumours - 6:23

Log / CUE / NFO:
Code:
EAC extraction logfile from 25. March 2008, 0:18 for CD
Depeche Mode / Some Great Reward

Used drive  : PLEXTOR DVDR   PX-760A   Adapter: 1  ID: 0
Read mode   : Secure with NO C2, accurate stream, disable cache
Read offset correction : 30
Overread into Lead-In and Lead-Out : Yes

Used output format : C:\Program Files\FLAC\flac.exe   (User Defined Encoder)
                     320 kBit/s
                     Additional command line options : -8 -V -T "ARTIST=%a" -T "TITLE=%t" -T "ALBUM=%g" -T "DATE=%y" -T "TRACKNUMBER=%n" -T "GENRE=%m" -T "COMMENT=EAC FLAC -8" %s

Other options      :
    Fill up missing offset samples with silence : Yes
    Delete leading and trailing silent blocks : No
    Native Win32 interface for Win NT & 2000


Track  1
     Filename H:\Temp\01 - Something To Do.wav

     Pre-gap length  0:00:02.00

     Peak level 79.9 %
     Track quality 99.9 %
     Test CRC 4D0EDFA8
     Copy CRC 4D0EDFA8
     Copy OK

Track  2
     Filename H:\Temp\02 - Lie To Me.wav

     Pre-gap length  0:00:00.11

     Peak level 71.8 %
     Track quality 99.9 %
     Test CRC C376DBC2
     Copy CRC C376DBC2
     Copy OK

Track  3
     Filename H:\Temp\03 - People Are People.wav

     Peak level 86.8 %
     Track quality 100.0 %
     Test CRC A3E8CFB5
     Copy CRC A3E8CFB5
     Copy OK

Track  4
     Filename H:\Temp\04 - It Doesn't Matter.wav

     Peak level 65.4 %
     Track quality 100.0 %
     Test CRC 449185F9
     Copy CRC 449185F9
     Copy OK

Track  5
     Filename H:\Temp\05 - Stories Of Old.wav

     Peak level 75.0 %
     Track quality 100.0 %
     Test CRC 3854D3F5
     Copy CRC 3854D3F5
     Copy OK

Track  6
     Filename H:\Temp\06 - Somebody.wav

     Pre-gap length  0:00:00.06

     Peak level 57.3 %
     Track quality 100.0 %
     Test CRC AD98506A
     Copy CRC AD98506A
     Copy OK

Track  7
     Filename H:\Temp\07 - Master And Servant.wav

     Pre-gap length  0:00:00.11

     Peak level 80.6 %
     Track quality 100.0 %
     Test CRC 4FE538B2
     Copy CRC 4FE538B2
     Copy OK

Track  8
     Filename H:\Temp\08 - If You Want.wav

     Pre-gap length  0:00:00.11

     Peak level 78.2 %
     Track quality 100.0 %
     Test CRC ED716389
     Copy CRC ED716389
     Copy OK

Track  9
     Filename H:\Temp\09 - Blasphemous Rumours.wav

     Pre-gap length  0:00:00.08

     Peak level 88.8 %
     Track quality 100.0 %
     Test CRC 0F8AD02A
     Copy CRC 0F8AD02A
     Copy OK

No errors occured


End of status report

REM COMMENT "CUETools generated dummy CUE sheet"
FILE "01 - Something to Do.flac" WAVE
  TRACK 01 AUDIO
    INDEX 01 00:00:00
FILE "02 - Lie to Me.flac" WAVE
  TRACK 02 AUDIO
    INDEX 01 00:00:00
FILE "03 - People Are People.flac" WAVE
  TRACK 03 AUDIO
    INDEX 01 00:00:00
FILE "04 - It Doesn't Matter.flac" WAVE
  TRACK 04 AUDIO
    INDEX 01 00:00:00
FILE "05 - Stories of Old.flac" WAVE
  TRACK 05 AUDIO
    INDEX 01 00:00:00
FILE "06 - Somebody.flac" WAVE
  TRACK 06 AUDIO
    INDEX 01 00:00:00
FILE "07 - Master and Servant.flac" WAVE
  TRACK 07 AUDIO
    INDEX 01 00:00:00
FILE "08 - If You Want.flac" WAVE
  TRACK 08 AUDIO
    INDEX 01 00:00:00
FILE "09 - Blasphemous Rumours.flac" WAVE
  TRACK 09 AUDIO
    INDEX 01 00:00:00


DOWNLOAD:
All Hosters/Crypters are compatible

Crypted via FileCrypt:
AyeFiles.com [Image: 5F5E777FAD.png]
Rapidgator.net [Image: 159E7A7651.png]
Share-online.biz [Image: E2D4084165.png]

Crypted via Relink:
AyeFiles.com [Image: f0bfd42a5d0129b14e321d4cdddea4.png]
Rapidgator.net [Image: d60616c2eecc53b34f93e20766d850.png]
Share-online.biz [Image: 117eafedd65bfdda5885bfed3858d9.png]

Password: "slam" (without " ")