WarezForum

Full Version: Depeche Mode - Construction Time Again (Reissue) (1983/1992) [FLAC]
You're currently viewing a stripped down version of our content. View the full version with proper formatting.
[Image: fa4hj64g.jpg]

Audio Bitrate: ~700 kBit/s (44.1 kHz/16 Bit/s) | Audio Encoder: FLAC
Releaseyear: 1983/1992 | Size: 253,93 MB | Notes: Discogs | Add. Notes: Reissue

Tracklist:
Code:
1 - Love, In Itself - 4:30
2 - More Than A Party - 4:44
3 - Pipeline - 5:55
4 - Everything Counts - 4:22
5 - Two Minute Warning - 4:14
6 - Shame - 3:45
7 - The Landscape Is Changing - 4:49
8 - Told You So - 4:25
9 - And Then... - 4:35
10 - Everything Counts (Reprise) - 1:05

Log / CUE / NFO:
Code:
Exact Audio Copy V0.99 prebeta 4 from 23. January 2008

EAC extraction logfile from 16. March 2008, 1:18

Depeche Mode / Construction Time Again

Used drive  : ASUS    DRW-1608P2S   Adapter: 1  ID: 0

Read mode               : Secure
Utilize accurate stream : Yes
Defeat audio cache      : Yes
Make use of C2 pointers : No

Read offset correction                      : 48
Overread into Lead-In and Lead-Out          : No
Fill up missing offset samples with silence : Yes
Delete leading and trailing silent blocks   : No
Null samples used in CRC calculations       : Yes
Used interface                              : Native Win32 interface for Win NT & 2000
Gap handling                                : Appended to previous track

Used output format              : User Defined Encoder
Selected bitrate                : 768 kBit/s
Quality                         : High
Add ID3 tag                     : No
Command line compressor         : C:\Program Files (x86)\Exact Audio Copy\FLAC\FLAC.EXE
Additional command line options : -8 -V -T "ARTIST=%a" -T "TITLE=%t" -T "ALBUM=%g" -T "DATE=%y" -T "TRACKNUMBER=%n" -T "GENRE=%m" -T "COMMENT=EAC FLAC -8" %s


TOC of the extracted CD

     Track |   Start  |  Length  | Start sector | End sector
    ---------------------------------------------------------
        1  |  0:00.00 |  4:29.25 |         0    |    20199  
        2  |  4:29.25 |  4:45.42 |     20200    |    41616  
        3  |  9:14.67 |  5:54.60 |     41617    |    68226  
        4  | 15:09.52 |  4:20.58 |     68227    |    87784  
        5  | 19:30.35 |  4:13.67 |     87785    |   106826  
        6  | 23:44.27 |  3:51.45 |    106827    |   124196  
        7  | 27:35.72 |  4:49.30 |    124197    |   145901  
        8  | 32:25.27 |  4:26.45 |    145902    |   165896  
        9  | 36:51.72 |  4:35.68 |    165897    |   186589  
       10  | 41:27.65 |  0:59.40 |    186590    |   191054  


Track  1

     Filename H:\Temp\01. Depeche Mode - Love, In Itself.wav

     Pre-gap length  0:00:02.00

     Peak level 71.2 %
     Track quality 100.0 %
     Test CRC 361A5D16
     Copy CRC 361A5D16
     Accurately ripped (confidence 2)  [AD8AE449]
     Copy OK

Track  2

     Filename H:\Temp\02. Depeche Mode - More Than A Party.wav

     Peak level 84.4 %
     Track quality 99.9 %
     Test CRC EB951E86
     Copy CRC EB951E86
     Accurately ripped (confidence 2)  [4479E061]
     Copy OK

Track  3

     Filename H:\Temp\03. Depeche Mode - Pipeline.wav

     Peak level 61.9 %
     Track quality 100.0 %
     Test CRC B7E5358E
     Copy CRC B7E5358E
     Accurately ripped (confidence 2)  [574D6556]
     Copy OK

Track  4

     Filename H:\Temp\04. Depeche Mode - Everything Counts.wav

     Peak level 79.7 %
     Track quality 100.0 %
     Test CRC C6C5696E
     Copy CRC C6C5696E
     Accurately ripped (confidence 2)  [1F2CA3BB]
     Copy OK

Track  5

     Filename H:\Temp\05. Depeche Mode - Two Minute Warning.wav

     Pre-gap length  0:00:00.70

     Peak level 61.9 %
     Track quality 100.0 %
     Test CRC A35A5C3E
     Copy CRC A35A5C3E
     Accurately ripped (confidence 2)  [8D0C5C48]
     Copy OK

Track  6

     Filename H:\Temp\06. Depeche Mode - Shame.wav

     Peak level 65.5 %
     Track quality 100.0 %
     Test CRC 878DEC18
     Copy CRC 878DEC18
     Accurately ripped (confidence 2)  [F5CEA25C]
     Copy OK

Track  7

     Filename H:\Temp\07. Depeche Mode - The Landscape Is Changing.wav

     Pre-gap length  0:00:00.71

     Peak level 72.3 %
     Track quality 100.0 %
     Test CRC 857666E1
     Copy CRC 857666E1
     Accurately ripped (confidence 2)  [57C93B72]
     Copy OK

Track  8

     Filename H:\Temp\08. Depeche Mode - Told You So.wav

     Pre-gap length  0:00:01.30

     Peak level 77.2 %
     Track quality 100.0 %
     Test CRC 66B39F2C
     Copy CRC 66B39F2C
     Accurately ripped (confidence 2)  [74555DC7]
     Copy OK

Track  9

     Filename H:\Temp\09. Depeche Mode - And Then....wav

     Pre-gap length  0:00:00.58

     Peak level 71.0 %
     Track quality 100.0 %
     Test CRC 064FF702
     Copy CRC 064FF702
     Accurately ripped (confidence 2)  [3AE6E45F]
     Copy OK

Track 10

     Filename H:\Temp\10. Depeche Mode - Everything Counts (Reprise).wav

     Pre-gap length  0:00:00.74

     Peak level 33.9 %
     Track quality 100.0 %
     Test CRC E3106136
     Copy CRC E3106136
     Accurately ripped (confidence 2)  [92712EAA]
     Copy OK


All tracks accurately ripped

No errors occurred

End of status report

REM COMMENT "CUETools generated dummy CUE sheet"
FILE "01 - Love, in Itself.flac" WAVE
  TRACK 01 AUDIO
    INDEX 01 00:00:00
FILE "02 - More Than a Party.flac" WAVE
  TRACK 02 AUDIO
    INDEX 01 00:00:00
FILE "03 - Pipeline.flac" WAVE
  TRACK 03 AUDIO
    INDEX 01 00:00:00
FILE "04 - Everything Counts.flac" WAVE
  TRACK 04 AUDIO
    INDEX 01 00:00:00
FILE "05 - Two Minute Warning.flac" WAVE
  TRACK 05 AUDIO
    INDEX 01 00:00:00
FILE "06 - Shame.flac" WAVE
  TRACK 06 AUDIO
    INDEX 01 00:00:00
FILE "07 - The Landscape Is Changing.flac" WAVE
  TRACK 07 AUDIO
    INDEX 01 00:00:00
FILE "08 - Told You So.flac" WAVE
  TRACK 08 AUDIO
    INDEX 01 00:00:00
FILE "09 - And Then....flac" WAVE
  TRACK 09 AUDIO
    INDEX 01 00:00:00
FILE "10 - Everything Counts (Reprise).flac" WAVE
  TRACK 10 AUDIO
    INDEX 01 00:00:00


DOWNLOAD:
All Hosters/Crypters are compatible

Crypted via FileCrypt:
Rapidgator.net [Image: 4F3F5FDF44.png]
AyeFiles.com [Image: FCB6B10D91.png]
Share-online.biz [Image: FCB6B10D91.png]

Crypted via Relink:
Rapidgator.net [Image: 668c41d80b066eb35d411df4f5364a.png]
AyeFiles.com [Image: 2b09c71617f4bad8f904f9d5a729de.png]
Share-online.biz [Image: d42e6deb9c6669ec67562e06934e08.png]

Password: "slam" (without " ")