WarezForum

Full Version: Deep Purple - Infinite (2017) (2017) [FLAC]
You're currently viewing a stripped down version of our content. View the full version with proper formatting.
[Image: mlsu5ac3.jpg]

Audio Bitrate: ~1000 kBit/s (44.1 kHz/16 Bit/s) | Audio Encoder: FLAC
Releaseyear: 2017 | Size: 436 MB | Notes: Discogs

Tracklist:
Code:
1 - Time For Bedlam - 4:34
2 - Hip Boots - 3:23
3 - All I Got Is You - 4:42
4 - One Night In Vegas - 3:23
5 - Get Me Outta Here - 3:58
6 - The Surprising - 5:57
7 - Johnny's Band - 3:51
8 - On Top Of The World - 4:01
9 - Birds Of Prey - 5:47
10 - Roadhouse Blues - 6:01

Log / CUE / NFO:
Code:
Exact Audio Copy V1.1 from 23. June 2015

EAC extraction logfile from 30. August 2017, 14:39

Deep Purple / Infinite (2017, 0211848EMU)

Used drive  : ATAPI   iHAS124   B   Adapter: 1  ID: 1

Read mode               : Secure
Utilize accurate stream : Yes
Defeat audio cache      : Yes
Make use of C2 pointers : No

Read offset correction                      : 6
Overread into Lead-In and Lead-Out          : No
Fill up missing offset samples with silence : Yes
Delete leading and trailing silent blocks   : No
Null samples used in CRC calculations       : Yes
Used interface                              : Native Win32 interface for Win NT & 2000

Used output format              : User Defined Encoder
Selected bitrate                : 128 kBit/s
Quality                         : High
Add ID3 tag                     : No
Command line compressor         : C:\Program Files (x86)\Exact Audio Copy\Flac\flac.exe
Additional command line options : -V -8 -T "Date=%year%" -T "Genre=%genre%" %source%


TOC of the extracted CD

     Track |   Start  |  Length  | Start sector | End sector
    ---------------------------------------------------------
        1  |  0:00.00 |  4:34.70 |         0    |    20619  
        2  |  4:34.70 |  3:23.37 |     20620    |    35881  
        3  |  7:58.32 |  4:42.32 |     35882    |    57063  
        4  | 12:40.64 |  3:23.70 |     57064    |    72358  
        5  | 16:04.59 |  3:58.47 |     72359    |    90255  
        6  | 20:03.31 |  5:57.41 |     90256    |   117071  
        7  | 26:00.72 |  3:51.26 |    117072    |   134422  
        8  | 29:52.23 |  4:01.48 |    134423    |   152545  
        9  | 33:53.71 |  5:47.66 |    152546    |   178636  
       10  | 39:41.62 |  6:01.18 |    178637    |   205729  


Range status and errors

Selected range

     Filename F:\CD\Deep Purple - Infinite.wav

     Peak level 100.0 %
     Extraction speed 5.5 X
     Range quality 100.0 %
     Test CRC 25A260B2
     Copy CRC 25A260B2
     Copy OK

No errors occurred


AccurateRip summary

Track  1  accurately ripped (confidence 125)  [64C3EC45]  (AR v2)
Track  2  accurately ripped (confidence 125)  [FC9F589E]  (AR v2)
Track  3  accurately ripped (confidence 125)  [AFD39FFC]  (AR v2)
Track  4  accurately ripped (confidence 125)  [0AE0C8D2]  (AR v2)
Track  5  accurately ripped (confidence 125)  [5F2DCAF0]  (AR v2)
Track  6  accurately ripped (confidence 125)  [F306F61F]  (AR v2)
Track  7  accurately ripped (confidence 125)  [1F43432F]  (AR v2)
Track  8  accurately ripped (confidence 125)  [C44FE7C1]  (AR v2)
Track  9  accurately ripped (confidence 125)  [10EBE236]  (AR v2)
Track 10  accurately ripped (confidence 124)  [A6C142F3]  (AR v2)

All tracks accurately ripped

End of status report

---- CUETools DB Plugin V2.1.6

[CTDB TOCID: gIFunqRE_SrsTgv5ghR69qyjtm0-] found
Submit result: gIFunqRE_SrsTgv5ghR69qyjtm0- has been confirmed
Track | CTDB Status
  1   | (764/765) Accurately ripped
  2   | (764/765) Accurately ripped
  3   | (764/765) Accurately ripped
  4   | (764/765) Accurately ripped
  5   | (764/765) Accurately ripped
  6   | (764/765) Accurately ripped
  7   | (763/765) Accurately ripped
  8   | (764/765) Accurately ripped
  9   | (764/765) Accurately ripped
10   | (759/765) Accurately ripped, or (2/765) differs in 4830 samples @06:01:02-06:01:07


==== Log checksum EE690E086FB16E8342450FBC361F255EE12CB8E4DABDE3838842AD1389BA8D9E ====


REM GENRE "Hard Rock"
REM DATE 2017
REM DISCID 860AB70A
REM COMMENT "ExactAudioCopy v1.1"
PERFORMER "Deep Purple"
TITLE "Infinite (2017, 0211848EMU)"
FILE "Deep Purple - Infinite.flac" WAVE
  TRACK 01 AUDIO
    TITLE "Time For Bedlam"
    PERFORMER "Deep Purple"
    INDEX 01 00:00:00
  TRACK 02 AUDIO
    TITLE "Hip Boots"
    PERFORMER "Deep Purple"
    INDEX 01 04:34:70
  TRACK 03 AUDIO
    TITLE "All I Got Is You"
    PERFORMER "Deep Purple"
    INDEX 01 07:58:32
  TRACK 04 AUDIO
    TITLE "One Night In Vegas"
    PERFORMER "Deep Purple"
    INDEX 01 12:40:64
  TRACK 05 AUDIO
    TITLE "Get Me Outta Here"
    PERFORMER "Deep Purple"
    INDEX 01 16:04:59
  TRACK 06 AUDIO
    TITLE "The Surprising"
    PERFORMER "Deep Purple"
    INDEX 01 20:03:31
  TRACK 07 AUDIO
    TITLE "Johnny's Band"
    PERFORMER "Deep Purple"
    INDEX 01 26:00:72
  TRACK 08 AUDIO
    TITLE "On Top Of The World"
    PERFORMER "Deep Purple"
    INDEX 01 29:52:23
  TRACK 09 AUDIO
    TITLE "Birds Of Prey"
    PERFORMER "Deep Purple"
    INDEX 01 33:53:71
  TRACK 10 AUDIO
    TITLE "Roadhouse Blues"
    PERFORMER "Deep Purple"
    INDEX 01 39:41:62


DOWNLOAD:
All Hosters/Crypters are compatible

Crypted via FileCrypt:
AyeFiles.com [Image: 12CB48C5FB.png]
Rapidgator.net [Image: 4E07D7525F.png]
Share-online.biz [Image: A57A29B80D.png]

Crypted via Relink:
AyeFiles.com [Image: fb1c7184cf1013a64aba04a9813762.png]
Rapidgator.net [Image: 9b6682f913c6cea0ac3429a6838752.png]
Share-online.biz [Image: 7198287ca7f98ca1d0882cbc83e705.png]

Password: "slam" (without " ")